MejorTorrent : variados extend 四川省麻雀 Free | Der Sentinel | Proceedings of the International Conference on
Inicio   -   Ayuda   -   Contacto   -   últimos Torrents

Torrents
Documentales842
Películas11256
Películas HD2068
Series1961
  Episodios22513
Series HD244
  Episodios2743
Juegos2689
  PC1736
Variados1521
  Deportes36
  Programas592
  Videoclips102
  Otros722
Música MP3 3525
Total Torrents57258

Información
Esta web no contiene ningún tipo de fichero almacenado.

Todos los archivos se comparten mediante el BitTorrent, un programa P2P de intercambio entre usuarios.



Descarga la última versión de uTorrent y baja a la máxima velocidad:
Iggy Azalea ft. T.I. - Change Your Life
Total Descargas:  1.282 En Octubre:  1.282

Fecha:  2016-07-25



Torrent:      Descargar         Tamaño:  50,99 MB
Descripción:

General

Format : MPEG-4
Format profile : Base Media
File size : 51.0 MiB
Duration : 3mn 39s
Overall bit rate mode : Variable
Overall bit rate : 1 946 Kbps

Video
Format : AVC
Format profile : High@L3.1
Duration : 3mn 39s
Source duration : 3mn 39s
Bit rate : 1 858 Kbps
Width : 1 280 pixels
Height : 720 pixels
Display aspect ratio : 16:9
Frame rate : 23.976 fps
Stream size : 48.7 MiB (95%)
Title : Iggy Azalea ft. T.I. - Change Your Life (Explicit) 720p x264 AAC [GWC]

Audio
Format : AAC
Format profile : LC
Duration : 3mn 39s
Bit rate mode : Variable
Channel(s) : 2 channels
Sampling rate : 48.0 KHz
Stream size : 2.25 MiB (4%)
Language : English



Volver al índice de Variados







Datos legales


DMCA.com Protection Status
14:58:38
computer